Avengers Infinity War (2018) 720p Hindi Dubbed New HDTC x264 Mp3 +ESubs by Full4movies torrent download

seeders: 520
leechers: 203
updated:
Added ago by shmasti ***** in Movies
Torrent Downloaded 10 times.
Info Hash: C709D153BCC50A8ED74A40CEDA3AE9015B2310E3


Torrent Files

Avengers Infinity War (2018) 720p Hindi Dubbed New HDTC x264 Mp3 +ESubs by Full4movies (Size: 1.1 GB)
  Avengers Infinity War (2018) 720p Hindi Dubbed New HDTC x264 Mp3 +ESubs by Full4movies 1.1 GB

Torrent Description





General
Complete name : Avengers Infinity War (2018) 720p Hindi Dubbed New HDTC x264 Mp3 +ESubs by Full4movies.mkv
Format : Matroska
Format version : Version 4 / Version 2
File size : 1.09 GiB
Duration : 2 h 17 min
Overall bit rate mode : Variable
Overall bit rate : 1 130 kb/s
Encoded date : UTC 2018-06-14 10:53:03
Writing application : mkvmerge v8.1.0 ('Psychedelic Postcard') 32bit
Writing library : libebml v1.3.1 + libmatroska v1.4.2

Video
ID : 1
Format : AVC
Format/Info : Advanced Video Codec
Format profile : [email protected]
Format settings, CABAC : Yes
Format settings, RefFrames : 8 frames
Codec ID : V_MPEG4/ISO/AVC
Duration : 2 h 17 min
Bit rate : 1 030 kb/s
Width : 1 280 pixels
Height : 536 pixels
Display aspect ratio : 2.40:1
Frame rate mode : Constant
Frame rate : 25.000 FPS
Color space : YUV
Chroma subsampling : 4:2:0
Bit depth : 8 bits
Scan type : Progressive
Bits/(Pixel*Frame) : 0.060
Stream size : 1 015 MiB (91%)
Writing library : x264 core 155 r2893 b00bcaf
Language : English
Default : Yes
Forced : No
Color range : Limited
Color primaries : BT.709
Transfer characteristics : BT.709
Matrix coefficients : BT.709

Audio
ID : 2
Format : MPEG Audio
Format version : Version 1
Format profile : Layer 3
Mode : Joint stereo
Mode extension : MS Stereo
Codec ID : A_MPEG/L3
Codec ID/Hint : MP3
Duration : 2 h 17 min
Bit rate mode : Variable
Bit rate : 96.0 kb/s
Channel(s) : 2 channels
Sampling rate : 48.0 kHz
Frame rate : 41.667 FPS (1152 SPF)
Compression mode : Lossy
Stream size : 96.7 MiB (9%)
Writing library : LAME3.99r
Encoding settings : -m j -V 4 -q 3 -lowpass 15.1 --abr 96
Language : Hindi
Default : No
Forced : No

Text
ID : 3
Format : UTF-8
Codec ID : S_TEXT/UTF8
Codec ID/Info : UTF-8 Plain Text
Duration : 2 h 16 min
Bit rate : 47 b/s
Count of elements : 1359
Stream size : 46.8 KiB (0%)
Language : English
Default : Yes
Forced : No

Screen Shoots



Related Torrents

torrent name size age seed leech
752.1 MB 3 minutes 315 341
2.5 GB 3 minutes 492 30
480.68 MB 6 minutes 381 296
1.08 GB 6 minutes 424 317
1.05 GB 6 minutes 287 189

Sharing Widget


Download torrent
1.1 GB
seeders:1214
leechers:386
Avengers Infinity War (2018) 720p Hindi Dubbed New HDTC x264 Mp3 +ESubs by Full4movies



To share this torrent use the code below and insert it into comments, status messages, forum posts or your signature.

Torrent: Avengers Infinity War (2018) 720p Hindi Dubbed New HDTC x264 Mp3 +ESubs by Full4movies

Comments

Latest Searches