Bharat Ennum Naan (2018) Tamil HDRip x264 700MB AAC MovCr torrent download

seeders: 6
leechers: 278
updated:
Added ago by MovCr ***** in Movies
Torrent Downloaded 10 times.
Info Hash: 4296745EE6EDC294CDB888078F27B8913AEE2056


Torrent Files

Bharat Ennum Naan (2018) Tamil - HDRip - x264 - 700MB - AAC - MovCr (Size: 695.4 MB)
  Bharat Ennum Naan (2018) Tamil - HDRip - x264 - 700MB - AAC - MovCr 695.4 MB

Torrent Description



https://movcr.com

Bharat Ennum Naan (2018) Tamil - HDRip - x264 - 700MB - AAC - MovCr


Video
ID : 1
Format : AVC
Format/Info : Advanced Video Codec
Format profile : [email protected]
Format settings, CABAC : Yes
Format settings, ReFrames : 4 frames
Codec ID : V_MPEG4/ISO/AVC
Duration : 2 h 41 min
Bit rate : 506 kb/s
Width : 720 pixels
Height : 304 pixels
Display aspect ratio : 2.35:1
Frame rate mode : Constant
Frame rate : 24.897 FPS
Color space : YUV
Chroma subsampling : 4:2:0
Bit depth : 8 bits
Scan type : Progressive
Bits/(Pixel*Frame) : 0.093
Stream size : 582 MiB (84%)
Title : www.MovCr.com
Writing library : x264 core 112
Encoding settings : cabac=1 / ref=2 / deblock=1:0:0 / analyse=0x1:0x111 / me=hex / subme=6 / psy=1 / psy_rd=1.00:0.00 / mixed_ref=0 / me_range=16 / chroma_me=1 / trellis=0 / 8x8dct=0 / cqm=0 / deadzone=21,11 / fast_pskip=1 / chroma_qp_offset=-2 / threads=12 / sliced_threads=0 / nr=0 / decimate=1 / interlaced=0 / constrained_intra=0 / bframes=2 / b_pyramid=2 / b_adapt=1 / b_bias=0 / direct=1 / weightb=0 / open_gop=0 / weightp=2 / keyint=250 / keyint_min=24 / scenecut=40 / intra_refresh=0 / rc_lookahead=40 / rc=abr / mbtree=1 / bitrate=506 / ratetol=1.0 / qcomp=0.60 / qpmin=3 / qpmax=51 / qpstep=4 / ip_ratio=1.40 / aq=1:1.00
Language : English
Default : Yes
Forced : No
Color range : Limited
Color primaries : BT.709
Transfer characteristics : BT.709
Matrix coefficients : BT.709

Audio
ID : 2
Format : AAC
Format/Info : Advanced Audio Codec
Format profile : LC
Codec ID : A_AAC
Duration : 2 h 41 min
Bit rate : 96.0 kb/s
Channel(s) : 2 channels
Channel positions : Front: L R
Sampling rate : 44.1 kHz
Frame rate : 43.066 FPS (1024 spf)
Compression mode : Lossy
Stream size : 111 MiB (16%)
Title : www.MovCr.com
Default : Yes
Forced : No







Related Torrents

torrent name size age seed leech
752.1 MB 4 minutes 239 409
2.5 GB 4 minutes 505 146
480.68 MB 7 minutes 194 400
1.08 GB 7 minutes 461 27
1.05 GB 7 minutes 658 260

Sharing Widget


Download torrent
695.4 MB
seeders:1214
leechers:386
Bharat Ennum Naan (2018) Tamil - HDRip - x264 - 700MB - AAC - MovCr



To share this torrent use the code below and insert it into comments, status messages, forum posts or your signature.

Torrent: Bharat Ennum Naan (2018) Tamil - HDRip - x264 - 700MB - AAC - MovCr

Comments

Latest Searches