Forrest Gump (1994) x 1606 (2160p) HDR 5 1 x265 10bit Phun Psyz torrent download

seeders: 184
leechers: 483
updated:
Added ago by PhunPsyz ***** in Movies
Torrent Downloaded 10 times.
Info Hash: F52EAD2D5ABEB83ADC48C4C4223B2F3D5AEB126D


Torrent Files

Forrest Gump (1994) x 1606 (2160p) HDR 5 1 x265 10bit Phun Psyz (Size: 5.2 GB)
  Forrest Gump (1994) x 1606 (2160p) HDR 5 1 x265 10bit Phun Psyz 5.2 GB

Torrent Description



www.imdb.com/title/tt0109830

The presidencies of Kennedy and Johnson, Vietnam, Watergate, and other history unfold through the perspective of an Alabama man with an IQ of 75.

Source: IAMABLE (HDR) (31.9 GiB)



Format : Matroska
Format version : Version 4 / Version 2
File size : 5.25 GiB
Duration : 2 h 22 min
Overall bit rate : 5 286 kb/s

Video
ID : 1
Format : HEVC
Format/Info : High Efficiency Video Coding
Format profile : Main [email protected]@High
Codec ID : V_MPEGH/ISO/HEVC
Duration : 2 h 22 min
Bit rate : 4 861 kb/s
Width : 3 840 pixels
Height : 1 606 pixels
Display aspect ratio : 2.40:1
Frame rate mode : Constant
Frame rate : 23.976 (24000/1001) FPS
Color space : YUV
Chroma subsampling : 4:2:0
Bit depth : 10 bits
Bits/(Pixel*Frame) : 0.033
Stream size : 4.83 GiB (92%)
Writing library : x265 2.6:[Windows][GCC 7.1.0][64 bit] 10bit

Audio
ID : 2
Format : AC-3
Format/Info : Audio Coding 3
Format settings, Endianness : Big
Codec ID : A_AC3
Duration : 2 h 22 min
Bit rate mode : Constant
Bit rate : 320 kb/s
Channel(s) : 6 channels
Channel positions : Front: L C R, Side: L R, LFE
Sampling rate : 48.0 kHz
Frame rate : 31.250 FPS (1536 SPF)
Bit depth : 16 bits
Compression mode : Lossy
Stream size : 325 MiB (6%)
Title : Surround
Language : English

Text
Language : English
Language : English
Language : English
Language : English
Language : English
Language : English
Language : English
Language : French
Language : French
Language : French
Language : Spanish
Language : Spanish
Language : Spanish
Language : Spanish
Language : Spanish
Language : Spanish
Language : Portuguese
Language : Portuguese
Language : Portuguese
Language : Italian
Language : Italian
Language : Italian
Language : German
Language : German
Language : German
Language : Dutch
Language : Swedish
Language : Norwegian
Language : Danish
Language : Finnish
Language : Japanese
Language : Japanese
Language : Japanese
Default : No
Forced : No



Related Torrents

torrent name size age seed leech
705.6 MB 2 minutes 607 58
1.0 GB 2 minutes 357 203
3.7 GB 2 minutes 315 382
4.0 GB 2 minutes 242 133
320.69 MB 9 minutes 273 10

Sharing Widget


Download torrent
5.2 GB
seeders:1214
leechers:386
Forrest Gump (1994) x 1606 (2160p) HDR 5 1 x265 10bit Phun Psyz



To share this torrent use the code below and insert it into comments, status messages, forum posts or your signature.

Torrent: Forrest Gump (1994) x 1606 (2160p) HDR 5 1 x265 10bit Phun Psyz

Comments

Latest Searches