Rum (2018) 720p Hindi Dubbed (Audio Cleaned) HDRip x264 AAC +ESubs by Full4movies torrent download

seeders: 117
leechers: 262
updated:
Added ago by shmasti ***** in Movies
Torrent Downloaded 10 times.
Info Hash: 4808DB2A4B48346CE82EB56A86D6080493385EFF


Torrent Files

Rum (2018) 720p Hindi Dubbed (Audio Cleaned) HDRip x264 AAC +ESubs by Full4movies (Size: 1.3 GB)
  Rum (2018) 720p Hindi Dubbed (Audio Cleaned) HDRip x264 AAC +ESubs by Full4movies 1.3 GB

Torrent Description





General
Complete name : Rum (2018) 720p Hindi Dubbed (Audio Cleaned) HDRip x264 AAC +ESubs by Full4movies.mkv
Format : Matroska
Format version : Version 4 / Version 2
File size : 1.31 GiB
Duration : 2 h 10 min
Overall bit rate : 1 443 kb/s
Encoded date : UTC 2018-06-14 12:11:13
Writing application : mkvmerge v8.1.0 ('Psychedelic Postcard') 32bit
Writing library : libebml v1.3.1 + libmatroska v1.4.2

Video
ID : 1
Format : AVC
Format/Info : Advanced Video Codec
Format profile : [email protected]
Format settings, CABAC : Yes
Format settings, RefFrames : 5 frames
Codec ID : V_MPEG4/ISO/AVC
Duration : 2 h 10 min
Bit rate : 1 280 kb/s
Width : 1 280 pixels
Height : 720 pixels
Display aspect ratio : 16:9
Frame rate mode : Constant
Frame rate : 23.810 FPS
Color space : YUV
Chroma subsampling : 4:2:0
Bit depth : 8 bits
Scan type : Progressive
Bits/(Pixel*Frame) : 0.058
Stream size : 1.17 GiB (89%)
Writing library : x264 core 148 r2643 5c65704
Language : Tamil
Default : Yes
Forced : No

Audio
ID : 2
Format : AAC
Format/Info : Advanced Audio Codec
Format profile : LC
Codec ID : A_AAC
Duration : 2 h 10 min
Bit rate : 159 kb/s
Channel(s) : 2 channels
Channel positions : Front: L R
Sampling rate : 48.0 kHz
Frame rate : 46.875 FPS (1024 SPF)
Compression mode : Lossy
Stream size : 148 MiB (11%)
Language : Hindi
Default : Yes
Forced : No

Text
ID : 3
Format : ASS
Codec ID : S_TEXT/ASS
Codec ID/Info : Advanced Sub Station Alpha
Duration : 2 h 7 min
Bit rate : 80 b/s
Count of elements : 1362
Compression mode : Lossless
Stream size : 75.1 KiB (0%)
Language : English
Default : Yes
Forced : No

Screen Shoots



Related Torrents

torrent name size age seed leech
494.1 MB 1 minute 406 111
3.8 GB 7 minutes 738 157
171.36 MB 8 minutes 279 393
5.37 MB 8 minutes 121 97
6.0 MB 19 minutes 753 87

Sharing Widget


Download torrent
1.3 GB
seeders:1214
leechers:386
Rum (2018) 720p Hindi Dubbed (Audio Cleaned) HDRip x264 AAC +ESubs by Full4movies



To share this torrent use the code below and insert it into comments, status messages, forum posts or your signature.

Torrent: Rum (2018) 720p Hindi Dubbed (Audio Cleaned) HDRip x264 AAC +ESubs by Full4movies

Comments

Latest Searches