Slumber: Il Demone del sonno (2017) 720p H264 italian english Ac3 5 1 sub ita MIRCrew torrent download

seeders: 747
leechers: 475
updated:
Added ago by robbyrs ***** in Movies
Torrent Downloaded 10 times.
Info Hash: 3EA6F5863E840C1E44ABCD5E4B8D92757CF5FD84


Torrent Files

Slumber: Il Demone del sonno (2017) 720p H264 italian english Ac3-5 1 sub ita MIRCrew (Size: 1.6 GB)
  Slumber: Il Demone del sonno (2017) 720p H264 italian english Ac3-5 1 sub ita MIRCrew 1.6 GB

Torrent Description



Slumber: Il Demone del sonno (2017).720p.H264.italian.english.Ac3-5.1.sub.ita.MIRCrew


NO FOUND ONLY ORIGINAL RELEASE



My release is always in double track audio italian and Original audio
for select it use VLC or dvd player home
not use wmp

Slumber: Il Demone del sonno (2017)

Quality MIRCrew on HD 720p da 1,7 gb







ENERE: Horror
ANNO: 2017
REGIA: Jonathan Hopkins
PAESE: Gran Bretagna, USA
DURATA: 84 Min



Maggie Q, Sylvester McCoy, Will Kemp, Sam Troughton, William Hope



Una creatura affamata tenta di agguantare un bambino intrappolato nel mondo dei sogni, ma una tenace dottoressa fa di tutto per impedirglielo. Protagonista di Slumber - Il Demone del sonno è Alice (Maggie Q), una specialista dei disturbi del sonno, che durante le sedute scorta i pazienti lungo un percorso di recupero e guarigione, mentre a casa deve fare i conti in prima persona con gli effetti di un misterioso trauma infantile..............



A sleep doctor tries to protect a family from a demon that feeds on people in their nightmares.....................











[spoiler]
General
Unique ID : 189350613594430521201316369286160049141 (0x8E739A071BACB01995986FCF068DE3F5)
Complete name : Slumber - Il Demone del sonno (2017).720p.h264.ita.eng.sub.ita-MIRCrew\Slumber - Il Demone del sonno (2017).720p.h264.ita.eng.sub.ita-MIRCrew.mkv
Format : Matroska
Format version : Version 2
File size : 1.65 GiB
Duration : 1h 24mn
Overall bit rate : 2 802 Kbps
Movie name : MIRCrew
Encoded date : UTC 2018-06-13 08:11:20
Writing application : mkvmerge v5.4.0 ('Piper') built on Mar 10 2012 13:34:39
Writing library : Lavf54.63.100

Video
ID : 1
Format : AVC
Format/Info : Advanced Video Codec
Format profile : [email protected]
Format settings, CABAC : Yes
Format settings, ReFrames : 2 frames
Codec ID : V_MPEG4/ISO/AVC
Duration : 1h 24mn
Bit rate : 1 900 Kbps
Width : 1 264 pixels
Height : 528 pixels
Display aspect ratio : 2.40:1
Original display aspect ratio : 2.40:1
Frame rate mode : Variable
Frame rate : 24.000 fps
Color space : YUV
Chroma subsampling : 4:2:0
Bit depth : 8 bits
Scan type : Progressive
Bits/(Pixel*Frame) : 0.119
Stream size : 1.09 GiB (66%)
Writing library : x264 core 130 r2273
Encoding settings : cabac=1 / ref=2 / deblock=1:0:0 / analyse=0x1:0x131 / me=hex / subme=7 / psy=1 / psy_rd=1.00:0.00 / mixed_ref=0 / me_range=16 / chroma_me=1 / trellis=1 / 8x8dct=0 / cqm=0 / deadzone=21,11 / fast_pskip=1 / chroma_qp_offset=-2 / threads=3 / lookahead_threads=1 / sliced_threads=0 / nr=0 / decimate=1 / interlaced=0 / bluray_compat=0 / constrained_intra=0 / bframes=3 / b_pyramid=0 / b_adapt=1 / b_bias=0 / direct=3 / weightb=1 / open_gop=0 / weightp=2 / keyint=240 / keyint_min=24 / scenecut=40 / intra_refresh=0 / rc_lookahead=40 / rc=abr / mbtree=1 / bitrate=1900 / ratetol=1.0 / qcomp=0.60 / qpmin=10 / qpmax=69 / qpstep=4 / vbv_maxrate=24000 / vbv_bufsize=24000 / nal_hrd=none / ip_ratio=1.40 / aq=1:1.00
Language : Italian
Default : Yes
Forced : No
DURATION : 01:24:11.834000000
NUMBER_OF_FRAMES : 121244
NUMBER_OF_BYTES : 5381287726
_STATISTICS_WRITING_APP : mkvmerge v9.7.1 ('Pandemonium') 64bit
_STATISTICS_WRITING_DATE_UTC : 2018-06-09 12:24:37
_STATISTICS_TAGS : BPS DURATION NUMBER_OF_FRAMES NUMBER_OF_BYTES

Audio #1
ID : 2
Format : AC-3
Format/Info : Audio Coding 3
Mode extension : CM (complete main)
Codec ID : A_AC3
Duration : 1h 24mn
Bit rate mode : Constant
Bit rate : 448 Kbps
Channel(s) : 6 channels
Channel positions : Front: L C R, Side: L R, LFE
Sampling rate : 48.0 KHz
Bit depth : 16 bits
Compression mode : Lossy
Delay relative to video : -5ms
Stream size : 270 MiB (16%)
Title : Ita Ac3 5.1
Language : Italian
Default : No
Forced : No
DURATION : 01:24:11.968000000
NUMBER_OF_FRAMES : 157874
NUMBER_OF_BYTES : 404157440
_STATISTICS_WRITING_APP : mkvmerge v9.7.1 ('Pandemonium') 64bit
_STATISTICS_WRITING_DATE_UTC : 2018-06-09 12:24:37
_STATISTICS_TAGS : BPS DURATION NUMBER_OF_FRAMES NUMBER_OF_BYTES

Audio #2
ID : 3
Format : AC-3
Format/Info : Audio Coding 3
Mode extension : CM (complete main)
Codec ID : A_AC3
Duration : 1h 24mn
Bit rate mode : Constant
Bit rate : 448 Kbps
Channel(s) : 6 channels
Channel positions : Front: L C R, Side: L R, LFE
Sampling rate : 48.0 KHz
Bit depth : 16 bits
Compression mode : Lossy
Delay relative to video : -5ms
Stream size : 270 MiB (16%)
Title : eng Ac3 5.1
Language : English
Default : No
Forced : No
DURATION : 01:24:12.022000000
NUMBER_OF_FRAMES : 473627
NUMBER_OF_BYTES : 952937592
_STATISTICS_WRITING_APP : mkvmerge v9.7.1 ('Pandemonium') 64bit
_STATISTICS_WRITING_DATE_UTC : 2018-06-09 12:24:37
_STATISTICS_TAGS : BPS DURATION NUMBER_OF_FRAMES NUMBER_OF_BYTES

Menu
00:00:00.000 : :(01)00:00:00:000
00:10:51.333 : :(02)00:10:51:333
00:22:46.291 : :(03)00:22:46:291
00:33:57.583 : :(04)00:33:57:583
00:44:47.916 : :(05)00:44:47:916
00:57:23.583 : :(06)00:57:23:583
01:08:00.083 : :(07)01:08:00:083
01:18:56.958 : :(08)01:18:56:958


[/spoiler]





Related Torrents

torrent name size age seed leech
231.7 MB 1 minute 281 198
231.7 MB 1 minute 392 234
1.2 GB 2 minutes 30 498
797.6 MB 2 minutes 239 260
227.69 MB 6 minutes 415 37

Sharing Widget


Download torrent
1.6 GB
seeders:1214
leechers:386
Slumber: Il Demone del sonno (2017) 720p H264 italian english Ac3-5 1 sub ita MIRCrew



To share this torrent use the code below and insert it into comments, status messages, forum posts or your signature.

Torrent: Slumber: Il Demone del sonno (2017) 720p H264 italian english Ac3-5 1 sub ita MIRCrew

Comments

Latest Searches